img image001 image001 image001 image001 image001 image001 image001 image001 image001 image001 image001 image001 image001 image001 image001 image001
Planets Sun Sun Sun
Статистика раздачи
Автор: PriZraK | Размер: 1.66 ГБ | Добавлен: 12 фев 2018
Раздают: 12    Качают: 0
Скачать торрент
Скачать торрент
Описание торрента

СообщениеДобавлено: 12 фев 2018 

Парни из Трейлерпарка: Обратный отсчет до запоя / Trailer Park Boys: Countdown to Liquor Day


Перевод: Авторский (одноголосый) М.Яроцкий, субтитры: отсутствуют
Формат: BDRip, AVI, XviD, AC3
Страна: Канада
Режиссер: Майк Клаттенбёрг
Жанр: комедия, криминал
Продолжительность: 01:45:15
Год выпуска: 2009

В ролях: Робб Уэллсб, Джон Пол Тремблэ, Майк Смит, Джон Дансворт, Джонатан Торренс, Патрик Роач, Люси Декутер, Сара Дансворт, Бэрри Данн, Тайрон Парсонс

Описание: Вторая полнометражная картина про Парней из Трейлерпарка. Рикки, Джулиан и Бабблс возвращаются из тюрьмы и обнаруживают, что их любимый парк совсем запущен, а под боком появился какой-то совершенно новый Трейлерпарк. С помощью быстрых схем и ограблений они пытаются разбогатеть, в то время как вновь ушедший в запой участковый Лейхи угрожает сорвать все их планы.



Видео: 720x400 (16:9), 23,976 fps, XviD build 73 ~1866 kbps avg, 0.270 bit/pixel
Аудио: 48 kHz, AC3 Dolby Digital, 3/2 (L,C,R) + L R, LFE ch, 448 kbps
Релиз-группа:

Доп. информация: перевод доступен благодаря: Roy 33, 7654, zom666 и Группа ВК Парни из Трейлерпарка. Постер от Ольги Левицкой. Исходники от Moysha. Работа со звуком Переводман



Общее
Полное имя : D:\VIDEO\Мои переводы\Trailer.Park.Boys.Countdown.to.Liquor.Day.2009.kyberpunk.avi
Формат : AVI
Формат/Информация : Audio Video Interleave
Размер файла : 1,66 Гбайт
Продолжительность : 1 ч. 42 м.
Общий поток : 2324 Кбит/сек
Программа кодирования : VirtualDubMod 1.5.10.2 (build 2540/release)
Библиотека кодирования : VirtualDubMod build 2540/release

Видео
Идентификатор : 0
Формат : MPEG-4 Visual
Профиль формата : Advanced [email protected]
Параметр BVOP формата : 3
Параметр QPel формата : Да
Параметр GMC формата : 3 точки перехода
Параметр матрицы формата : Default (H.263)
Режим смешивания : Сжатый битовый поток
Идентификатор кодека : XVID
Идентификатор кодека/Подсказка : XviD
Продолжительность : 1 ч. 42 м.
Битрейт : 1866 Кбит/сек
Ширина : 720 пикселей
Высота : 400 пикселей
Соотношение сторон : 16:9
Частота кадров : 23,976 (24000/1001) кадра/сек
Цветовое пространство : YUV
Субдискретизация насыщенности : 4:2:0
Битовая глубина : 8 бит
Тип развёртки : Прогрессивная
Метод сжатия : С потерями
Бит/(Пиксели*Кадры) : 0.270
Размер потока : 1,33 Гбайт (80%)
Библиотека кодирования : XviD 1.2.0.dev47 (UTC 2006-11-01)

Аудио
Идентификатор : 1
Формат : AC-3
Формат/Информация : Audio Coding 3
Параметр Endianness формата : Big
Идентификатор кодека : 2000
Продолжительность : 1 ч. 42 м.
Вид битрейта : Постоянный
Битрейт : 448 Кбит/сек
Каналы : 6 каналов
Расположение каналов : Front: L C R, Side: L R, LFE
Частота : 48,0 КГц
Частота кадров : 31,250 кадров/сек (1536 SPF)
Битовая глубина : 16 бит
Метод сжатия : С потерями
Размер потока : 328 Мбайт (19%)
Выравнивание : Разделение по промежуткам
Продолжительность промежутка : 42 мс. (1,00 видеокадр)
Время предзагрузки промежутка : 500 мс.
ServiceKind/String : Complete Main










   Похожие торренты   Торрент   Размер 
В этой теме нет новых непрочитанных сообщений. Парни из трейлер парка: Обратный отсчет до дня алкашей / Trailer Park Boys: Countdown to Liquor Day (2009) HDRip

9 | 1

1.41 ГБ

В этой теме нет новых непрочитанных сообщений. Парни из Трейлерпарка, 1-7 сезоны 1-55 серии из 55 (+ 2 Bonus) / Trailer Park Boys [Михаил Яроцкий "kyberpunk"] (Майкл Клаттенберг) [2001-2007, комедия, криминал, DVDRip-AVC/HDRip-HEVC, P1]

8 | 0

20.38 ГБ

В этой теме нет новых непрочитанных сообщений. Парни из Трейлерпарка, 1-8 сезоны 1-56 серии из 65 (+ 2 Bonus) / Trailer Park Boys [Михаил Яроцкий "kyberpunk"] (Майкл Клаттенберг) [2001-2014, комедия, криминал, DVDRip-AVC/HDRip-HEVC, P1]

4 | 2

20.63 ГБ

В этой теме нет новых непрочитанных сообщений. Парни из Трейлерпарка, 1-7 сезоны 1-51 серии из 55 (+ 2 Bonus) / Trailer Park Boys [Михаил Яроцкий "kyberpunk"] (Майкл Клаттенберг) [2001-2007, комедия, криминал, DVDRip-AVC/HDRip-HEVC, P1]

0 | 4

18.65 ГБ

В этой теме нет новых непрочитанных сообщений. Парни из Трейлерпарка: Не легализуйте это / Trailer Park Boys: Don't Legalize It (2014) BDRip 720p | Jimmy J.

66 | 6

3.06 ГБ

В этой теме нет новых непрочитанных сообщений. Парни из Трейлерпарка / Trailer Park Boys [S01-04] (2001–2004) DVDRip-AVC | А

0 | 1

8.77 ГБ

В этой теме нет новых непрочитанных сообщений. Парни из Трейлерпарка / Trailer Park Boys [S11] (2017) WEBRip 720p | SunshineStudio

3 | 4

10.48 ГБ




Вы не можете начинать темы
Вы не можете отвечать на сообщения
Вы не можете редактировать свои сообщения
Вы не можете удалять свои сообщения
Вы не можете добавлять вложения

Перейти:  
Для Мосгорсуда, Роскомнадзора и рекламодателей: mosgorsud-torrent[собачка]yandex.ru
 Вход
ppkBB3cker v.2 © 2008-2014 @ PPK
[ Time : 0.052s | 20 Queries | GZIP : Off ]

cron